SKYWAY DROID обзор

Обзор ресиверов SKYWAY

Модераторы: moderator4, moderator3, moderator5

SKYWAY DROID обзор

Сообщение vodker » 18 дек 2010, 22:02

SKYWAY DROID обзор

Часть-1 "Первые фотографии"

Заранее извиняюсь за качество фотографии и фон, идет ремонт.

И так первое что мы видим это коробка SKYWAY DROID, в стиле предыдущих моделей.
Все очень качественно и красиво.
Изображение
Открываем коробку, и видим что там все аккуратно сложено.
Изображение
Мануал
Изображение
Гарантийный талон
Изображение
Сетевой провод, что приятно и удобно он отсоединяется, сата кабель, батарейки, перемычка.
Изображение
HDMI кабель
Изображение
Пульт ДУ, такой же примерно как у платинума но отличия есть в размерах некоторых кнопок
Изображение
Достаем ресивер, внешне модель со строгим дизайном, с отражающей(зеркальной) передней мородочкой, во включенном режиме выложу фотографии позже. Данный девайс прекрасно впишется в стойку hi-end аппаратуры.
Изображение
Задняя часть
Изображение
Изображение
Изображение
Изображение
Изображение

Разбираю DROID, далее выкладываю серию фото внутренностей. Качество сборки высокое.
Изображение
Изображение
Изображение
Изображение
Изображение
Изображение

На этом 1 часть всё
Интернет-магазин skywayhd.ru
НЕ ЗАДАВАЙТЕ ТЕХНИЧЕСКИЕ ВОПРОСЫ В ЛИЧНЫХ СООБЩЕНИЯ!!!

ЕСЛИ ПРОСЯТ СДЕЛАТЬ СКРИНШОТ, ЖМИ СЮДА
Аватара пользователя
vodker
Гуру
Гуру
 
Сообщения: 12726
Зарегистрирован: 11 янв 2010, 01:41
Откуда: Ростов-на-Дону
Модель ресивера: SKYWAY VIRGO

Re: SKYWAY DROID обзор

Сообщение vodker » 18 дек 2010, 23:37

SKYWAY DROID обзор

Часть-2 "Включение и обновление ПО"

Заранее извиняюсь за качество фотографии и фон, идет ремонт.

И так продолжу, достал я его из коробки подключил к ТВ, к сожаление пока ремонт и приходится подключать к ЭЛТ, поэтому по качеству изображения сказать не чего не могу.

Под передней крышкой скрывается USB, CI слот х 2шт и карт ридер х 2шт
Изображение
Панель управления на ресивере подсвечивается приятным синем светом
Изображение
В выключенном режиме(быстрый старт) меняет цвет на красный
Изображение
Табло отображает информацию, по сравнению с платинумом буквы мне показались больше.
Изображение

Меню один в один такое же как на предыдущих моделях, плюс добавились пункты, пока обратил внимание что появился пункт YOUTUBE.
Изображение

Прошивка и плагины ставятся так же как и на предыдущих моделях, веб браузер ставился в архиве .tar.bz
Распаковывал длительное время, минут 5
Заходит по ftp, так же.
Шару запустил, что и как подробно в след. пункте.
Плагины от предыдущих моделей встали, пока все не запускал, но те что запустил работают корректно, но об этом тоже позже.

И под заключение выкладываю сравнение пульта от дройда и платинума.
Изображение
Со стороны ИК у дройда металлическая окантовка
Изображение

крышечка отсека батарей у дройда не когда не потеряется :lol:
Изображение
Интернет-магазин skywayhd.ru
НЕ ЗАДАВАЙТЕ ТЕХНИЧЕСКИЕ ВОПРОСЫ В ЛИЧНЫХ СООБЩЕНИЯ!!!

ЕСЛИ ПРОСЯТ СДЕЛАТЬ СКРИНШОТ, ЖМИ СЮДА
Аватара пользователя
vodker
Гуру
Гуру
 
Сообщения: 12726
Зарегистрирован: 11 янв 2010, 01:41
Откуда: Ростов-на-Дону
Модель ресивера: SKYWAY VIRGO

Re: SKYWAY DROID обзор

Сообщение vodker » 19 дек 2010, 00:21

SKYWAY DROID обзор

Часть-3 "YouTube"

Продолжу обзор с коротенького но значимого пункта проигрывание видео с сервиса YouTube.
Для воспроизведения надо зайти в пункт YouTube в меню приложений
Изображение
Попадаем в приложение проигрывания файлов YouTube
Изображение
Можно делать видео во весь экран
Из всех тестовых роликов проблем не возникло не с одним.
Единственное при воспроизведение файлов 1080p не успевал интернет и картинка постоянно подгружалась, когда видео полностью загрузилось воспроизведение уже шло без пауз.
Что еще сказать...
Есть поиск видео, категории, и географическое расположение.

ps. пишу обзор по мере знакомства с ресивером
Интернет-магазин skywayhd.ru
НЕ ЗАДАВАЙТЕ ТЕХНИЧЕСКИЕ ВОПРОСЫ В ЛИЧНЫХ СООБЩЕНИЯ!!!

ЕСЛИ ПРОСЯТ СДЕЛАТЬ СКРИНШОТ, ЖМИ СЮДА
Аватара пользователя
vodker
Гуру
Гуру
 
Сообщения: 12726
Зарегистрирован: 11 янв 2010, 01:41
Откуда: Ростов-на-Дону
Модель ресивера: SKYWAY VIRGO

Re: SKYWAY DROID обзор

Сообщение vodker » 19 дек 2010, 19:54

SKYWAY DROID обзор

Часть-4 "Эмуляторы"


С запуском эмуляторов и шары не каких проблем не возникло. Все настраивается аналогично предыдущим моделям, абсолютно все то же самое. Это хорошо тк не нужно по новой разбираться, в плане преемственности за это SKYWAY плюс.
Mcas установился и запустился, проверил карты в наличии триколора и платформы. Платформа отлично работает, триколор без ау на некоторых каналах, в общем все так же как на предыдущих моделях.
MgCamd завелся сразу, каналы открывает шустро. ситуация с переключением звуковой дорожкой есть, в общем как и на других моделях.
Xcam тоже пошел без проблем, при первом переключение открывает значительно медленнее чем MgCamd но при повторном включение каналов переключение становится таким же быстрым. Проблем не каких нет.
OsCam не пробовал за ненадобностью.

Подводя итог, хочу отметить что в плане кардшаринга модель работает так же превосходно как предыдущие модели ресиверов.
Скринов не каких не выкладываю, тк все настройки есть на форуме в FAQ.
В следующей части погоняю плагины.
Интернет-магазин skywayhd.ru
НЕ ЗАДАВАЙТЕ ТЕХНИЧЕСКИЕ ВОПРОСЫ В ЛИЧНЫХ СООБЩЕНИЯ!!!

ЕСЛИ ПРОСЯТ СДЕЛАТЬ СКРИНШОТ, ЖМИ СЮДА
Аватара пользователя
vodker
Гуру
Гуру
 
Сообщения: 12726
Зарегистрирован: 11 янв 2010, 01:41
Откуда: Ростов-на-Дону
Модель ресивера: SKYWAY VIRGO

Re: SKYWAY DROID обзор

Сообщение vodker » 21 дек 2010, 15:12

SKYWAY DROID обзор

Часть-5 "Медиаплеер"


К ресиверу подключен сетевой диск, фильмы запускались на 3-15 минут.
OK- файл без проблем воспроизвелся.
OK-файл воспроизвелся но были проблемы.
NO-файл не воспроизвелся.
N/A-файл в ресивере не распознается, не указывает размер и формат.

1.
Format : Matroska
File size : 2.18 GiB
Duration : 2h 28mn
Overall bit rate : 2 104 Kbps
Video Format : AVC
Codec ID : V_MPEG4/ISO/AVC
Width : 1 056 pixels
Height : 440 pixels
Frame rate : 23.976 fps

OK
2.
Format : Matroska
File size : 1.89 GiB
Duration : 1h 41mn
Overall bit rate : 2 665 Kbps
Video Format : AVC
Codec ID : V_MPEG4/ISO/AVC
Width : 720 pixels
Height : 556 pixels
Frame rate : 25.000 fps

OK
3.
Format : AVI
File size : 2.19 GiB
Duration : 1h 52mn
Overall bit rate : 2 779 Kbps
Video Format : MPEG-4 Visual
Codec ID : XVID
Codec ID/Hint : XviD
Width : 720 pixels
Height : 304 pixels
Frame rate : 23.976 fps

OK
4.
Format : MPEG-PS
File size : 3.85 GiB
Duration : 1h 36mn
Overall bit rate : 5 729 Kbps
Video Format : MPEG Video
Width : 720 pixels
Height : 576 pixels
Display aspect ratio : 4:3
Frame rate : 25.000 fps

N/A
5.
Format : Matroska
File size : 2.19 GiB
Duration : 1h 44mn
Overall bit rate : 3 006 Kbps
Video Format : AVC
Codec ID : V_MPEG4/ISO/AVC
Width : 1 280 pixels
Height : 532 pixels
Frame rate : 23.976 fps
Audio Format : AAC
Format/Info : Advanced Audio Codec

OK
6.
Format : AVI
File size : 1.37 GiB
Duration : 1h 25mn
Overall bit rate : 2 301 Kbps
Video Format : MPEG-4 Visual
Codec ID : DX50
Codec ID/Hint : DivX 5
Width : 720 pixels
Height : 544 pixels
Frame rate : 25.000 fps

OK
7.
Format : AVI
File size : 1.31 GiB
Duration : 1h 20mn
Overall bit rate : 2 323 Kbps
Video Format : MPEG-4 Visual
Codec ID : DX50
Codec ID/Hint : DivX 5
Duration : 1h 20mn
Bit rate : 2 201 Kbps
Width : 704 pixels
Height : 560 pixels
Frame rate : 25.000 fps

OK
8.
Format : DivX
File size : 3.71 GiB
Duration : 2h 23mn
Overall bit rate : 3 701 Kbps
Video Format : MPEG-4 Visual
Codec ID : DX50
Codec ID/Hint : DivX 5
Width : 1 280 pixels
Height : 720 pixels
Frame rate : 25.000 fps

OK
9.
Format : AVI
File size : 22.7 MiB
Duration : 3mn 1s
Overall bit rate : 1 050 Kbps
Video Format : MPEG-4 Visual
Codec ID : XVID
Codec ID/Hint : XviD
Width : 480 pixels
Height : 270 pixels
Frame rate : 23.976 fps

OK
10.
Format : Matroska
File size : 27.0 GiB
Duration : 2h 20mn
Overall bit rate : 27.6 Mbps
Video Format : AVC
Codec ID : V_MPEG4/ISO/AVC
Width : 1 920 pixels
Height : 1 080 pixels
Frame rate : 23.976 fps
Audio Format : AC-3
Format/Info : Audio Coding 3

NO
Загрузил но воспроизведение не пошло
11.
Format : AVI
File size : 2.18 GiB
Duration : 2h 6mn
Overall bit rate : 2 462 Kbps
Video Format : MPEG-4 Visual
Codec ID : XVID
Codec ID/Hint : XviD
Width : 720 pixels
Height : 400 pixels
Frame rate : 23.976 fps
Audio Format : AC-3
Format/Info : Audio Coding 3

OK
12.
Format : AVI
File size : 1.33 GiB
Duration : 1h 26mn
Overall bit rate : 2 202 Kbps
Video Format : MPEG-4 Visual
Codec ID : XVID
Codec ID/Hint : XviD
Width : 720 pixels
Height : 384 pixels
Frame rate : 25.000 fps
Audio Format : AC-3
Format/Info : Audio Coding 3

OK
13.
Format : Matroska
File size : 2.19 GiB
Duration : 1h 33mn
Overall bit rate : 3 371 Kbps
Video Format : AVC
Codec ID : V_MPEG4/ISO/AVC
Width : 1 076 pixels
Height : 456 pixels
Frame rate : 23.976 fps

OK
14.
Format : MPEG-4
File size : 47.5 MiB
Duration : 3mn 8s
Overall bit rate : 2 117 Kbps
Video Format : AVC
Codec ID : avc1
Codec ID/Info : Advanced Video Coding
Width : 1 280 pixels
Height : 720 pixels
Frame rate : 25.000 fps
Audio Format : AAC
Format/Info : Advanced Audio Codec

OK
15.
Format : Matroska
File size : 1.37 GiB
Duration : 1h 4mn
Overall bit rate : 3 047 Kbps
Video Format : AVC
Codec ID : V_MPEG4/ISO/AVC
Width : 720 pixels
Height : 480 pixels
Frame rate : 25.000 fps
Audio Format : AAC
Format/Info : Advanced Audio Codec
Codec ID : A_AAC

OK
16.
Format : Matroska
File size : 4.37 GiB
Duration : 1h 37mn
Overall bit rate : 6 429 Kbps
Video Format : AVC
Codec ID : V_MPEG4/ISO/AVC
Width : 1 280 pixels
Height : 544 pixels
Frame rate : 23.976 fps
Audio Format : DTS
Format/Info : Digital Theater Systems
Codec ID : A_DTS

OK
Пошел без звука.
17.
Format : Matroska
File size : 5.29 GiB
Duration : 1h 47mn
Overall bit rate : 7 066 Kbps
Video Format : AVC
Format/Info : Advanced Video Codec
Width : 1 280 pixels
Height : 534 pixels
Frame rate : 23.976 fps

NO
18.
Format : Matroska
File size : 6.82 GiB
Duration : 1h 30mn
Overall bit rate : 10.8 Mbps
Video Format : AVC
Format/Info : Advanced Video Codec
Width : 1 920 pixels
Height : 1 080 pixels
Frame rate : 29.970 fps

NO
19.
Format : Matroska
File size : 4.37 GiB
Duration : 2h 41mn
Overall bit rate : 3 868 Kbps
Video Format : AVC
Format/Info : Advanced Video Codec
Format profile : High@L4.0
Codec ID : V_MPEG4/ISO/AVC
Width : 1 024 pixels
Height : 576 pixels
Frame rate : 23.976 fps
Audio Format : AC-3
Format/Info : Audio Coding 3
Codec ID : A_AC3

OK
Не большая рассинхронизация видео и звука.
Есть подозрение что это из за того что видео идет по сети т.к. когда запустил второй раз все пошло правильно.
Может с внутреннего диска проблем не будет.
20.
Format : AVI
File size : 2.18 GiB
Duration : 2h 19mn
Overall bit rate : 2 236 Kbps
Video Format : MPEG-4 Visual
Codec ID : XVID
Width : 720 pixels
Height : 304 pixels
Frame rate : 23.976 fps

OK
21.
Format : Matroska
File size : 2.43 GiB
Duration : 1h 44mn
Overall bit rate : 3 332 Kbps
Video Format : AVC
Codec ID : V_MPEG4/ISO/AVC
Width : 1 024 pixels
Height : 576 pixels
Frame rate : 25.000 fps
Audio Format : AC-3
Codec ID : A_AC3

OK
22.
Format : Matroska
File size : 2.19 GiB
Duration : 2h 32mn
Overall bit rate : 2 051 Kbps
Video Format : AVC
Format/Info : Advanced Video Codec
Format profile : High@L3.1
Codec ID : V_MPEG4/ISO/AVC
Width : 720 pixels
Height : 576 pixels
Frame rate : 25.000 fps
Audio Format : AAC

OK
23.
Format : AVI
Format/Info : Audio Video Interleave
File size : 703 MiB
Duration : 1h 12mn
Overall bit rate : 1 359 Kbps
Video Format : MPEG-4 Visual
Codec ID : DX50
Codec ID/Hint : DivX 5
Width : 704 pixels
Height : 528 pixels
Frame rate : 25.000 fps
Audio Format : MPEG Audio
Codec ID/Hint : MP3

OK
24.
Format : Matroska
File size : 2.23 GiB
Duration : 1h 36mn
Overall bit rate : 3 307 Kbps
Video Format : AVC
Format/Info : Advanced Video Codec
Format profile : High@L4.0
Format settings, CABAC : Yes
Codec ID : V_MPEG4/ISO/AVC
Width : 1 152 pixels
Height : 624 pixels
Frame rate : 24.000 fps
Audio Format : AC-3
Format/Info : Audio Coding 3
Codec ID : A_AC3

OK
25.
Format : Matroska
File size : 2.90 GiB
Duration : 1h 59mn
Overall bit rate : 3 473 Kbps
Video Format : AVC
Format/Info : Advanced Video Codec
Format profile : High@L4.0
Codec ID : V_MPEG4/ISO/AVC
Width : 1 280 pixels
Height : 544 pixels
Frame rate : 23.976 fps
Audio Format : AC-3
Format/Info : Audio Coding 3
Codec ID : A_AC3

OK
26.
Format : Matroska
File size : 4.94 GiB
Duration : 1h 33mn
Overall bit rate : 7 543 Kbps
Video Format : AVC
Format/Info : Advanced Video Codec
Format profile : High@L3.1
Codec ID : V_MPEG4/ISO/AVC
Width : 1 280 pixels
Height : 688 pixels
Frame rate : 23.976 fps
Audi Format : AC-3
Format/Info : Audio Coding 3

OK
Не большая рассинхронизация видео и звука.
Есть подозрение что это из за того что видео идет по сети т.к. в начале её не было.
Может с внутреннего диска проблем не будет.

В тестах были видео приемущественно из собственной коллекции, не держу больших файлов поэтому большинство файлов в тестах размером около 2ГБ.
Подводя итог хочу сказать что при воспроизведение видео файлов не больших размеров проблем не наблюдалось, за исключением одного файла, не исключенно что рип там кривой, файл около 5гб пошел, но без звука, скорее всего ресивер не поддерживает формат DTS, завтра постараюсь запустить еще 2-3 подобных файла но со звуком AVC. Большой файл размером 27 ГБ не пошел, видимо ресивер еще не готов к воспроизведению этих файлов а может и и что этот файл не захотел, не знаю больше файлов нет что бы проверить.
Файлы больше 5ГБ не запускаются. Может потом прикрутят.
Есть один минус, не работает перемотка при мкв, надеюсь в будущем подправят, а может и добавят поддержку больших файлов.
Русские название на дисплее ресивера отображаются корректно.
Интернет-магазин skywayhd.ru
НЕ ЗАДАВАЙТЕ ТЕХНИЧЕСКИЕ ВОПРОСЫ В ЛИЧНЫХ СООБЩЕНИЯ!!!

ЕСЛИ ПРОСЯТ СДЕЛАТЬ СКРИНШОТ, ЖМИ СЮДА
Аватара пользователя
vodker
Гуру
Гуру
 
Сообщения: 12726
Зарегистрирован: 11 янв 2010, 01:41
Откуда: Ростов-на-Дону
Модель ресивера: SKYWAY VIRGO

Re: SKYWAY DROID обзор

Сообщение skyway » 23 дек 2010, 09:56

Первые тесты SKYWAY DROID от компании EUROSAT. Готовится также и видеообзор.

Можете верить а можете и нет, но я пока лучше картинки на своем 60 дюймовом Pioneer не видел ни с одного приемника.


http://www.eurosat.ru/droid.html
skyway
Администратор
Администратор
 
Сообщения: 259
Зарегистрирован: 17 ноя 2009, 16:11
Модель ресивера: SKYWAY DROID

Re: SKYWAY DROID обзор

Сообщение vodker » 23 янв 2011, 13:03

SKYWAY DROID обзор

Часть-6 "Медиаплеер-2"
(с внутреннего HDD)

К ресиверу подключен внутренний HDD, фильмы запускались на 10-25 минут.
OK- файл без проблем воспроизвелся.
OK-файл воспроизвелся но были проблемы.
NO-файл не воспроизвелся.
N/A-файл в ресивере не распознается, не указывает размер и формат.

1.
Код: Выделить всё
Format                           : AVI
Format/Info                      : Audio Video Interleave
Format profile                   : OpenDML
File size                        : 2.19 GiB
Duration                         : 1h 52mn
Overall bit rate                 : 2 779 Kbps
Movie name                       : С меня хватит! / Крушение / Falling Down (1993) BDRip
Director                         : DaniLch
Genre                            : Thriller/Drama/Crime
Writing application              : VirtualDubMod 1.5.10.2 (build 2542/release)
Copyright                        : http://hqclub.net/
Comment                          : HQCLUB

Video
ID                               : 0
Format                           : MPEG-4 Visual
Format profile                   : Advanced Simple@L5
Format settings, BVOP            : Yes
Format settings, QPel            : No
Format settings, GMC             : No warppoints
Format settings, Matrix          : Custom
Codec ID                         : XVID
Codec ID/Hint                    : XviD
Duration                         : 1h 52mn
Bit rate                         : 2 179 Kbps
Width                            : 720 pixels
Height                           : 304 pixels
Display aspect ratio             : 2.35:1
Frame rate                       : 23.976 fps
Color space                      : YUV
Chroma subsampling               : 4:2:0
Bit depth                        : 8 bits
Scan type                        : Progressive
Bits/(Pixel*Frame)               : 0.415
Stream size                      : 1.71 GiB (78%)
Writing library                  : XviD 1.2.1 (UTC 2008-12-04)

Audio #1
ID                               : 1
Format                           : AC-3
Format/Info                      : Audio Coding 3
Mode extension                   : CM (complete main)
Codec ID                         : 2000
Duration                         : 1h 52mn
Bit rate mode                    : Constant
Bit rate                         : 192 Kbps
Channel(s)                       : 2 channels
Channel positions                : Front: L R
Sampling rate                    : 48.0 KHz
Bit depth                        : 16 bits
Stream size                      : 155 MiB (7%)
Alignment                        : Split accross interleaves
Interleave, duration             : 42 ms (1.00 video frame)
Interleave, preload duration     : 500 ms
Title                            : Многоголосый закадровый (Твистер)

OK
2.
Код: Выделить всё
Format                           : AVI
Format/Info                      : Audio Video Interleave
Format profile                   : OpenDML
File size                        : 2.18 GiB
Duration                         : 1h 59mn
Overall bit rate                 : 2 625 Kbps
Movie name                       : Missiya.Sereniti.2005.DUAL.BDRip.XviD.AC3.-HQCLUB
Director                         : Orbit
Writing application              : VirtualDubMod 1.5.10.2 (build 2542/release)
Copyright                        : hqclub.net
Comment                          : 13.12.2010

Video
ID                               : 0
Format                           : MPEG-4 Visual
Format profile                   : Advanced Simple@L5
Format settings, BVOP            : Yes
Format settings, QPel            : No
Format settings, GMC             : No warppoints
Format settings, Matrix          : Custom
Codec ID                         : XVID
Codec ID/Hint                    : XviD
Duration                         : 1h 59mn
Bit rate                         : 1 839 Kbps
Width                            : 720 pixels
Height                           : 304 pixels
Display aspect ratio             : 2.35:1
Frame rate                       : 23.976 fps
Color space                      : YUV
Chroma subsampling               : 4:2:0
Bit depth                        : 8 bits
Scan type                        : Progressive
Bits/(Pixel*Frame)               : 0.350
Stream size                      : 1.53 GiB (70%)
Writing library                  : XviD 1.2.1 (UTC 2008-12-04)

Audio #1
ID                               : 1
Format                           : AC-3
Format/Info                      : Audio Coding 3
Mode extension                   : CM (complete main)
Codec ID                         : 2000
Duration                         : 1h 58mn
Bit rate mode                    : Constant
Bit rate                         : 384 Kbps
Channel(s)                       : 6 channels
Channel positions                : Front: L C R, Side: L R, LFE
Sampling rate                    : 48.0 KHz
Bit depth                        : 16 bits
Stream size                      : 327 MiB (15%)
Alignment                        : Split accross interleaves
Interleave, duration             : 42 ms (1.00 video frame)
Interleave, preload duration     : 500 ms

OK
3.
Код: Выделить всё
Format                           : AVI
Format/Info                      : Audio Video Interleave
Format profile                   : OpenDML
File size                        : 2.18 GiB
Duration                         : 1h 50mn
Overall bit rate                 : 2 820 Kbps
Writing application              : VirtualDubMod 1.5.10.2 (build 2540/release)
Writing library                  : VirtualDubMod build 2540/release

Video
ID                               : 0
Format                           : MPEG-4 Visual
Format profile                   : Advanced Simple@L5
Format settings, BVOP            : Yes
Format settings, QPel            : No
Format settings, GMC             : No warppoints
Format settings, Matrix          : Default (MPEG)
Codec ID                         : XVID
Codec ID/Hint                    : XviD
Duration                         : 1h 50mn
Bit rate                         : 2 386 Kbps
Width                            : 720 pixels
Height                           : 384 pixels
Display aspect ratio             : 1.875
Frame rate                       : 23.976 fps
Color space                      : YUV
Chroma subsampling               : 4:2:0
Bit depth                        : 8 bits
Scan type                        : Progressive
Bits/(Pixel*Frame)               : 0.360
Stream size                      : 1.85 GiB (85%)
Writing library                  : XviD 1.2.0.dev47 (UTC 2006-11-01)

Audio #1
ID                               : 1
Format                           : AC-3
Format/Info                      : Audio Coding 3
Mode extension                   : CM (complete main)
Codec ID                         : 2000
Duration                         : 1h 50mn
Bit rate mode                    : Constant
Bit rate                         : 224 Kbps
Channel(s)                       : 2 channels
Channel positions                : Front: L R
Sampling rate                    : 48.0 KHz
Bit depth                        : 16 bits
Stream size                      : 178 MiB (8%)
Alignment                        : Split accross interleaves
Interleave, duration             : 42 ms (1.00 video frame)
Interleave, preload duration     : 500 ms

OK
4.
Код: Выделить всё
Format                           : Matroska
File size                        : 2.19 GiB
Duration                         : 1h 44mn
Overall bit rate                 : 3 006 Kbps
Encoded date                     : UTC 2009-07-08 17:01:52
Writing application              : mkvmerge v2.9.7 ('Tenderness') built on Jul  1 2009 18:43:35
Writing library                  : libebml v0.7.7 + libmatroska v0.8.1
Cover                            : Yes

Video
ID                               : 1
Format                           : AVC
Format/Info                      : Advanced Video Codec
Format profile                   : High@L4.0
Format settings, CABAC           : Yes
Format settings, ReFrames        : 12 frames
Muxing mode                      : Container profile=Unknown@4.0
Codec ID                         : V_MPEG4/ISO/AVC
Duration                         : 1h 44mn
Width                            : 1 280 pixels
Height                           : 532 pixels
Display aspect ratio             : 2.40:1
Frame rate                       : 23.976 fps
Color space                      : YUV
Chroma subsampling               : 4:2:0
Bit depth                        : 8 bits
Scan type                        : Progressive
Title                            : AVC; 1280x532 (2.406); 2406 Kbps; 23,976 fps; 0,147 bpp
Writing library                  : x264 core 67 r1173M f6d3166
Encoding settings                : cabac=1 / ref=12 / deblock=1:-3:0 / analyse=0x3:0x113 / me=umh / subme=9 / psy_rd=1.0:0.0 / mixed_ref=1 / me_range=32 / chroma_me=1 / trellis=2 / 8x8dct=1 / cqm=0 / deadzone=21,11 / chroma_qp_offset=-2 / threads=6 / nr=0 / decimate=1 / mbaff=0 / bframes=9 / b_pyramid=1 / b_adapt=2 / b_bias=0 / direct=1 / wpredb=1 / keyint=250 / keyint_min=25 / scenecut=45 / rc=crf / crf=21.5 / qcomp=0.60 / qpmin=10 / qpmax=51 / qpstep=4 / ip_ratio=1.40 / pb_ratio=1.30 / aq=1:1.00
Language                         : English
Matrix coefficients              : BT.709-5, BT.1361, IEC 61966-2-4 709, SMPTE RP177

Audio #1
ID                               : 2
Format                           : AAC
Format/Info                      : Advanced Audio Codec
Format version                   : Version 4
Format profile                   : LC
Format settings, SBR             : No
Codec ID                         : A_AAC
Duration                         : 1h 44mn
Channel(s)                       : 6 channels
Channel positions                : Front: L C R, Side: L R, LFE
Sampling rate                    : 48.0 KHz
Title                            : AAC LC; 245 Kbps; VBR; 6 ch; 16 bit; Dub
Language                         : Russian

5.
Код: Выделить всё
Format                           : Matroska
File size                        : 4.37 GiB
Duration                         : 2h 41mn
Overall bit rate                 : 3 868 Kbps
Encoded date                     : UTC 2010-04-25 13:57:39
Writing application              : mkvmerge v3.3.0 ('Language') built on Mar 24 2010 14:59:24
Writing library                  : libebml v0.8.0 + libmatroska v0.9.0
Cover                            : Yes / Yes

Video
ID                               : 1
Format                           : AVC
Format/Info                      : Advanced Video Codec
Format profile                   : High@L4.0
Format settings, CABAC           : Yes
Format settings, ReFrames        : 11 frames
Muxing mode                      : Container profile=Unknown@4.0
Codec ID                         : V_MPEG4/ISO/AVC
Duration                         : 2h 41mn
Bit rate                         : 2 970 Kbps
Width                            : 1 024 pixels
Height                           : 576 pixels
Display aspect ratio             : 16:9
Frame rate                       : 23.976 fps
Color space                      : YUV
Chroma subsampling               : 4:2:0
Bit depth                        : 8 bits
Scan type                        : Progressive
Bits/(Pixel*Frame)               : 0.210
Stream size                      : 3.27 GiB (75%)
Title                            : 1024x576 (16:9); 2968 Kbps; 23,976 fps; 0,214 bpp
Writing library                  : x264 core 94 r1563 fbcc1ec
Encoding settings                : cabac=1 / ref=11 / deblock=1:-2:-1 / analyse=0x3:0x133 / me=umh / subme=9 / psy=1 / psy_rd=1.00:0.15 / mixed_ref=1 / me_range=24 / chroma_me=1 / trellis=2 / 8x8dct=1 / cqm=0 / deadzone=21,11 / fast_pskip=0 / chroma_qp_offset=-3 / threads=6 / sliced_threads=0 / nr=0 / decimate=0 / interlaced=0 / constrained_intra=0 / bframes=8 / b_pyramid=2 / b_adapt=2 / b_bias=0 / direct=3 / wpredb=1 / wpredp=2 / keyint=250 / keyint_min=25 / scenecut=40 / intra_refresh=0 / rc=2pass / mbtree=0 / bitrate=2970 / ratetol=1.0 / qcomp=0.75 / qpmin=10 / qpmax=51 / qpstep=4 / cplxblur=20.0 / qblur=0.5 / ip_ratio=1.40 / pb_ratio=1.30 / aq=1:1.00 / zones=225450,232607,q=35
Language                         : English
Matrix coefficients              : BT.709-5, BT.1361, IEC 61966-2-4 709, SMPTE RP177

Audio #1
ID                               : 2
Format                           : AC-3
Format/Info                      : Audio Coding 3
Mode extension                   : CM (complete main)
Codec ID                         : A_AC3
Duration                         : 2h 41mn
Bit rate mode                    : Constant
Bit rate                         : 448 Kbps
Channel(s)                       : 6 channels
Channel positions                : Front: L C R, Side: L R, LFE
Sampling rate                    : 48.0 KHz
Bit depth                        : 16 bits
Stream size                      : 518 MiB (12%)
Title                            : Dubbing @ DD 5.1 @ 448 kbps
Language                         : Russian

OK
После первого старта фильма звук отставал, после повторного запуска фильм воспроизвелся корректно.
6.
Код: Выделить всё
Format                           : Matroska
File size                        : 2.19 GiB
Duration                         : 1h 33mn
Overall bit rate                 : 3 371 Kbps
Encoded date                     : UTC 2010-09-19 09:01:09
Writing application              : mkvmerge v3.3.0 ('Language') built on Mar 24 2010 14:59:24
Writing library                  : libebml v0.8.0 + libmatroska v0.9.0

Video
ID                               : 1
Format                           : AVC
Format/Info                      : Advanced Video Codec
Format profile                   : High@L4.0
Format settings, CABAC           : Yes
Format settings, ReFrames        : 11 frames
Muxing mode                      : Container profile=Unknown@4.0
Codec ID                         : V_MPEG4/ISO/AVC
Duration                         : 1h 33mn
Bit rate                         : 2 475 Kbps
Width                            : 1 076 pixels
Height                           : 456 pixels
Display aspect ratio             : 2.35:1
Frame rate                       : 23.976 fps
Color space                      : YUV
Chroma subsampling               : 4:2:0
Bit depth                        : 8 bits
Scan type                        : Progressive
Bits/(Pixel*Frame)               : 0.210
Stream size                      : 1.57 GiB (71%)
Title                            : Bandidas
Writing library                  : x264 core 104 r1713 c276662
Encoding settings                : cabac=1 / ref=11 / deblock=1:-2:-1 / analyse=0x3:0x133 / me=umh / subme=10 / psy=1 / psy_rd=1.10:0.00 / mixed_ref=1 / me_range=24 / chroma_me=0 / trellis=2 / 8x8dct=1 / cqm=0 / deadzone=21,11 / fast_pskip=0 / chroma_qp_offset=-2 / threads=3 / sliced_threads=0 / nr=0 / decimate=0 / interlaced=0 / constrained_intra=0 / bframes=8 / b_pyramid=2 / b_adapt=2 / b_bias=0 / direct=3 / weightb=1 / open_gop=0 / weightp=2 / keyint=250 / keyint_min=23 / scenecut=40 / intra_refresh=0 / rc_lookahead=100 / rc=2pass / mbtree=1 / bitrate=2475 / ratetol=1.0 / qcomp=0.70 / qpmin=10 / qpmax=51 / qpstep=4 / cplxblur=20.0 / qblur=0.5 / ip_ratio=1.40 / aq=2:0.90
Language                         : English

Audio #1
ID                               : 2
Format                           : AC-3
Format/Info                      : Audio Coding 3
Mode extension                   : CM (complete main)
Codec ID                         : A_AC3
Duration                         : 1h 33mn
Bit rate mode                    : Constant
Bit rate                         : 448 Kbps
Channel(s)                       : 6 channels
Channel positions                : Front: L C R, Side: L R, LFE
Sampling rate                    : 48.0 KHz
Bit depth                        : 16 bits
Stream size                      : 299 MiB (13%)
Title                            : Дубляж
Language                         : Russian

OK
7.
Код: Выделить всё
Format                           : AVI
Format/Info                      : Audio Video Interleave
File size                        : 1.46 GiB
Duration                         : 1h 48mn
Overall bit rate                 : 1 923 Kbps
Writing application              : VirtualDubMod 1.6.0.0 SURROUND (build 2560/release)
Writing library                  : VirtualDubMod build 2560/release

Video
ID                               : 0
Format                           : MPEG-4 Visual
Format profile                   : Advanced Simple@L5
Format settings, BVOP            : Yes
Format settings, QPel            : No
Format settings, GMC             : No warppoints
Format settings, Matrix          : Default (MPEG)
Codec ID                         : XVID
Codec ID/Hint                    : XviD
Duration                         : 1h 48mn
Bit rate                         : 1 530 Kbps
Width                            : 704 pixels
Height                           : 384 pixels
Display aspect ratio             : 16:9
Frame rate                       : 23.976 fps
Color space                      : YUV
Chroma subsampling               : 4:2:0
Bit depth                        : 8 bits
Scan type                        : Progressive
Bits/(Pixel*Frame)               : 0.236
Stream size                      : 1.16 GiB (80%)
Writing library                  : XviD 1.2.0.dev47 (UTC 2006-11-01)

Audio
ID                               : 1
Format                           : AC-3
Format/Info                      : Audio Coding 3
Mode extension                   : CM (complete main)
Codec ID                         : 2000
Duration                         : 1h 48mn
Bit rate mode                    : Constant
Bit rate                         : 384 Kbps
Channel(s)                       : 6 channels
Channel positions                : Front: L C R, Side: L R, LFE
Sampling rate                    : 48.0 KHz
Bit depth                        : 16 bits
Stream size                      : 299 MiB (20%)
Alignment                        : Aligned on interleaves
Interleave, duration             : 42 ms (1.00 video frame)
Interleave, preload duration     : 512 ms

OK
8.
Код: Выделить всё
Format                           : Matroska
File size                        : 2.18 GiB
Duration                         : 2h 28mn
Overall bit rate                 : 2 104 Kbps
Movie name                       : Начало / Inception (2010) :: AFM ::
Encoded date                     : UTC 2010-12-03 17:53:56
Writing application              : mkvmerge v4.4.0 ('Die Wiederkehr') сборка от Oct 31 2010 21:52:48
Writing library                  : libebml v1.0.0 + libmatroska v1.0.0

Video
ID                               : 1
Format                           : AVC
Format/Info                      : Advanced Video Codec
Format profile                   : High@L4.1
Format settings, CABAC           : Yes
Format settings, ReFrames        : 11 frames
Muxing mode                      : Container profile=Unknown@4.1
Codec ID                         : V_MPEG4/ISO/AVC
Duration                         : 2h 28mn
Nominal bit rate                 : 1 651 Kbps
Width                            : 1 056 pixels
Height                           : 440 pixels
Display aspect ratio             : 2.40:1
Frame rate                       : 23.976 fps
Color space                      : YUV
Chroma subsampling               : 4:2:0
Bit depth                        : 8 bits
Scan type                        : Progressive
Bits/(Pixel*Frame)               : 0.148
Title                            : BDRip by AFM
Writing library                  : x264 core 110 r1804 e89c4cf
Encoding settings                : cabac=1 / ref=11 / deblock=1:-2:-1 / analyse=0x3:0x113 / me=umh / subme=10 / psy=1 / psy_rd=1.05:0.05 / mixed_ref=1 / me_range=32 / chroma_me=1 / trellis=2 / 8x8dct=1 / cqm=0 / deadzone=21,11 / fast_pskip=0 / chroma_qp_offset=-3 / threads=6 / sliced_threads=0 / nr=0 / decimate=0 / interlaced=0 / constrained_intra=0 / bframes=12 / b_pyramid=2 / b_adapt=2 / b_bias=0 / direct=3 / weightb=1 / open_gop=0 / weightp=2 / keyint=250 / keyint_min=23 / scenecut=40 / intra_refresh=0 / rc_lookahead=100 / rc=2pass / mbtree=1 / bitrate=1651 / ratetol=1.0 / qcomp=0.65 / qpmin=0 / qpmax=51 / qpstep=4 / cplxblur=20.0 / qblur=0.5 / vbv_maxrate=50000 / vbv_bufsize=50000 / ip_ratio=1.40 / aq=1:0.90 / nal_hrd=none
Language                         : English
Matrix coefficients              : BT.709-5, BT.1361, IEC 61966-2-4 709, SMPTE RP177

Audio #1
ID                               : 2
Format                           : AAC
Format/Info                      : Advanced Audio Codec
Format version                   : Version 4
Format profile                   : LC
Format settings, SBR             : No
Codec ID                         : A_AAC
Duration                         : 2h 28mn
Channel(s)                       : 6 channels
Channel positions                : Front: L C R, Side: L R, LFE
Sampling rate                    : 48.0 KHz
Title                            : Dub, AAC 6ch, 228 kbps
Language                         : Russian

OK
9.
Код: Выделить всё
Format                           : AVI
Format/Info                      : Audio Video Interleave
File size                        : 1.33 GiB
Duration                         : 1h 26mn
Overall bit rate                 : 2 202 Kbps
Writing application              : VirtualDubMod 1.5.4.1 (build 2178/release)
Writing library                  : VirtualDubMod build 2178/release

Video
ID                               : 0
Format                           : MPEG-4 Visual
Format profile                   : Advanced Simple@L5
Format settings, BVOP            : Yes
Format settings, QPel            : No
Format settings, GMC             : No warppoints
Format settings, Matrix          : Custom
Codec ID                         : XVID
Codec ID/Hint                    : XviD
Duration                         : 1h 26mn
Bit rate                         : 1 804 Kbps
Width                            : 720 pixels
Height                           : 384 pixels
Display aspect ratio             : 1.875
Frame rate                       : 25.000 fps
Color space                      : YUV
Chroma subsampling               : 4:2:0
Bit depth                        : 8 bits
Scan type                        : Progressive
Bits/(Pixel*Frame)               : 0.261
Stream size                      : 1.09 GiB (82%)
Writing library                  : XviD 1.2.0.dev47 (UTC 2006-11-01)

Audio #1
ID                               : 1
Format                           : AC-3
Format/Info                      : Audio Coding 3
Mode extension                   : CM (complete main)
Codec ID                         : 2000
Duration                         : 1h 26mn
Bit rate mode                    : Constant
Bit rate                         : 192 Kbps
Channel(s)                       : 2 channels
Channel positions                : Front: L R
Sampling rate                    : 48.0 KHz
Bit depth                        : 16 bits
Stream size                      : 119 MiB (9%)
Alignment                        : Aligned on interleaves
Interleave, duration             : 40 ms (1.00 video frame)
Interleave, preload duration     : 512 ms

OK
10.
Код: Выделить всё
Format                           : Matroska
File size                        : 1.54 GiB
Duration                         : 1h 51mn
Overall bit rate                 : 1 982 Kbps
Encoded date                     : UTC 2009-09-09 19:57:06
Writing application              : mkvmerge v2.9.8 ('C'est le bon') built on Aug 13 2009 12:49:06
Writing library                  : libebml v0.7.7 + libmatroska v0.8.1

Video
ID                               : 1
Format                           : AVC
Format/Info                      : Advanced Video Codec
Format profile                   : High@L3.0
Format settings, CABAC           : Yes
Format settings, ReFrames        : 5 frames
Muxing mode                      : Container profile=Unknown@3.0
Codec ID                         : V_MPEG4/ISO/AVC
Duration                         : 1h 51mn
Nominal bit rate                 : 1 500 Kbps
Width                            : 710 pixels
Height                           : 462 pixels
Display aspect ratio             : 16:9
Original display aspect ratio    : 16:9
Frame rate                       : 23.976 fps
Color space                      : YUV
Chroma subsampling               : 4:2:0
Bit depth                        : 8 bits
Scan type                        : Progressive
Bits/(Pixel*Frame)               : 0.191
Title                            : Total Eclipse 1995 DVDRip-AVC
Writing library                  : x264 core 65
Encoding settings                : cabac=1 / ref=5 / deblock=1:-1:-1 / analyse=0x3:0x133 / me=umh / subme=9 / psy_rd=1.0:1.0 / mixed_ref=1 / me_range=24 / chroma_me=1 / trellis=1 / 8x8dct=1 / cqm=0 / deadzone=21,11 / chroma_qp_offset=-4 / threads=3 / nr=0 / decimate=1 / mbaff=0 / bframes=6 / b_pyramid=1 / b_adapt=1 / b_bias=0 / direct=3 / wpredb=1 / keyint=240 / keyint_min=24 / scenecut=40(pre) / rc=2pass / bitrate=1500 / ratetol=1.0 / qcomp=0.60 / qpmin=10 / qpmax=51 / qpstep=4 / cplxblur=20.0 / qblur=0.5 / ip_ratio=1.40 / pb_ratio=1.30 / aq=1:1.00
Language                         : English
Color primaries                  : BT.601-6 525, BT.1358 525, BT.1700 NTSC, SMPTE 170M
Transfer characteristics         : BT.709-5, BT.1361
Matrix coefficients              : BT.601-6 525, BT.1358 525, BT.1700 NTSC, SMPTE 170M

Audio #1
ID                               : 2
Format                           : AAC
Format/Info                      : Advanced Audio Codec
Format version                   : Version 4
Format profile                   : LC
Format settings, SBR             : No
Codec ID                         : A_AAC
Duration                         : 1h 51mn
Channel(s)                       : 6 channels
Channel positions                : Front: L C R, Side: L R, LFE
Sampling rate                    : 48.0 KHz
Title                            : LC-AAC Русский 5.1 48 Khz VBR 320 Kbps
Language                         : Russian

OK
Звук отстает от изображения
11.
Код: Выделить всё
Format                           : AVI
Format/Info                      : Audio Video Interleave
Format profile                   : OpenDML
File size                        : 2.18 GiB
Duration                         : 2h 6mn
Overall bit rate                 : 2 462 Kbps
Writing application              : VirtualDubMod 1.5.10.2 (build 2540/release)

Video
ID                               : 0
Format                           : MPEG-4 Visual
Format profile                   : Advanced Simple@L5
Format settings, BVOP            : Yes
Format settings, QPel            : No
Format settings, GMC             : No warppoints
Format settings, Matrix          : Default (MPEG)
Muxing mode                      : Packed bitstream
Codec ID                         : XVID
Codec ID/Hint                    : XviD
Duration                         : 2h 6mn
Bit rate                         : 2 002 Kbps
Width                            : 720 pixels
Height                           : 400 pixels
Display aspect ratio             : 16:9
Frame rate                       : 23.976 fps
Color space                      : YUV
Chroma subsampling               : 4:2:0
Bit depth                        : 8 bits
Scan type                        : Progressive
Bits/(Pixel*Frame)               : 0.290
Stream size                      : 1.77 GiB (81%)
Writing library                  : XviD 1.2.0.dev47 (UTC 2006-11-01)

Audio
ID                               : 1
Format                           : AC-3
Format/Info                      : Audio Coding 3
Mode extension                   : CM (complete main)
Codec ID                         : 2000
Duration                         : 2h 6mn
Bit rate mode                    : Constant
Bit rate                         : 448 Kbps
Channel(s)                       : 6 channels
Channel positions                : Front: L C R, Side: L R, LFE
Sampling rate                    : 48.0 KHz
Bit depth                        : 16 bits
Video delay                      : 931ms
Stream size                      : 406 MiB (18%)
Alignment                        : Split accross interleaves
Interleave, duration             : 42 ms (1.00 video frame)
Interleave, preload duration     : 500 ms

OK
12.
Код: Выделить всё
Format                           : Matroska
File size                        : 5.19 GiB
Duration                         : 1h 54mn
Overall bit rate                 : 6 501 Kbps
Encoded date                     : UTC 2010-08-20 01:43:00
Writing application              : mkvmerge v4.2.0 ('No Talking') built on Jul 28 2010 18:38:23
Writing library                  : libebml v1.0.0 + libmatroska v1.0.0

Video
ID                               : 1
Format                           : AVC
Format/Info                      : Advanced Video Codec
Format profile                   : High@L4.1
Format settings, CABAC           : Yes
Format settings, ReFrames        : 8 frames
Muxing mode                      : Container profile=Unknown@4.1
Codec ID                         : V_MPEG4/ISO/AVC
Duration                         : 1h 54mn
Bit rate                         : 4 836 Kbps
Nominal bit rate                 : 5 080 Kbps
Width                            : 1 280 pixels
Height                           : 544 pixels
Display aspect ratio             : 2.35:1
Frame rate                       : 23.976 fps
Color space                      : YUV
Chroma subsampling               : 4:2:0
Bit depth                        : 8 bits
Scan type                        : Progressive
Bits/(Pixel*Frame)               : 0.290
Stream size                      : 3.86 GiB (74%)
Writing library                  : x264 core 48 svn-537M
Encoding settings                : cabac=1 / ref=5 / deblock=1:0:0 / analyse=0x3:0x113 / me=umh / subme=7 / brdo=1 / mixed_ref=1 / me_range=16 / chroma_me=1 / trellis=1 / 8x8dct=1 / cqm=0 / chroma_qp_offset=0 / slices=2 / nr=0 / decimate=1 / bframes=3 / b_pyramid=1 / b_adapt=1 / b_bias=0 / direct=1 / wpredb=1 / bime=1 / keyint=250 / keyint_min=25 / scenecut=40 / rc=2pass / bitrate=5080 / ratetol=1.0 / rceq='blurCplx^(1-qComp)' / qcomp=0.60 / qpmin=10 / qpmax=51 / qpstep=4 / cplxblur=20.0 / qblur=0.5 / ip_ratio=1.40 / pb_ratio=1.30

Audio #1
ID                               : 2
Format                           : AC-3
Format/Info                      : Audio Coding 3
Mode extension                   : CM (complete main)
Codec ID                         : A_AC3
Duration                         : 1h 54mn
Bit rate mode                    : Constant
Bit rate                         : 192 Kbps
Channel(s)                       : 2 channels
Channel positions                : Front: L R
Sampling rate                    : 48.0 KHz
Bit depth                        : 16 bits
Stream size                      : 157 MiB (3%)
Title                            : DUB1 - Варус Видео
Language                         : Russian

OK
13.
Код: Выделить всё
Format                           : Matroska
File size                        : 8.76 GiB
Duration                         : 2h 4mn
Overall bit rate                 : 10.1 Mbps
Movie name                       : The Town (2010) .....:::UNIONGANG:::.....
Encoded date                     : UTC 2010-12-10 06:49:15
Writing application              : mkvmerge v4.1.1 ('Bouncin' Back') сборка от Jul  3 2010 22:54:08
Writing library                  : libebml v1.0.0 + libmatroska v1.0.0

Video
ID                               : 1
Format                           : AVC
Format/Info                      : Advanced Video Codec
Format profile                   : High@L4.1
Format settings, CABAC           : Yes
Format settings, ReFrames        : 5 frames
Muxing mode                      : Container profile=Unknown@4.1
Codec ID                         : V_MPEG4/ISO/AVC
Duration                         : 2h 4mn
Bit rate                         : 8 083 Kbps
Width                            : 1 920 pixels
Height                           : 800 pixels
Display aspect ratio             : 2.40:1
Frame rate                       : 23.976 fps
Color space                      : YUV
Chroma subsampling               : 4:2:0
Bit depth                        : 8 bits
Scan type                        : Progressive
Bits/(Pixel*Frame)               : 0.219
Stream size                      : 6.88 GiB (79%)
Title                            : The.Town.2010.P.BDRip.1080p.[uniongang.tv]
Writing library                  : x264 core 110 r1820 fdcf2ae
Encoding settings                : cabac=1 / ref=5 / deblock=1:0:0 / analyse=0x3:0x133 / me=umh / subme=7 / psy=1 / psy_rd=1.00:0.00 / mixed_ref=1 / me_range=16 / chroma_me=1 / trellis=1 / 8x8dct=1 / cqm=0 / deadzone=21,11 / fast_pskip=1 / chroma_qp_offset=-2 / threads=12 / sliced_threads=0 / nr=0 / decimate=1 / interlaced=0 / constrained_intra=0 / bframes=3 / b_pyramid=2 / b_adapt=2 / b_bias=0 / direct=3 / weightb=1 / open_gop=0 / weightp=2 / keyint=250 / keyint_min=23 / scenecut=40 / intra_refresh=0 / rc=2pass / mbtree=0 / bitrate=8083 / ratetol=1.0 / qcomp=0.60 / qpmin=0 / qpmax=51 / qpstep=4 / cplxblur=20.0 / qblur=0.5 / ip_ratio=1.40 / pb_ratio=1.30 / aq=1:1.00
Language                         : English

Audio #1
ID                               : 2
Format                           : AC-3
Format/Info                      : Audio Coding 3
Mode extension                   : CM (complete main)
Muxing mode                      : Header stripping
Codec ID                         : A_AC3
Duration                         : 2h 4mn
Bit rate mode                    : Constant
Bit rate                         : 448 Kbps
Channel(s)                       : 6 channels
Channel positions                : Front: L C R, Side: L R, LFE
Sampling rate                    : 48.0 KHz
Bit depth                        : 16 bits
Stream size                      : 400 MiB (4%)
Title                            : AC3 5.1 @ 448 kb/s [Russian MVO]
Language                         : Russian

OK
14.
Код: Выделить всё
Format                           : Matroska
File size                        : 11.4 GiB
Duration                         : 1h 44mn
Overall bit rate                 : 15.6 Mbps
Movie name                       : Salt (2010) - Release for HDCLUB
Encoded date                     : UTC 2010-12-02 12:54:55
Writing application              : mkvmerge v4.4.0 ('Die Wiederkehr') сборка от Oct 31 2010 21:52:48
Writing library                  : libebml v1.0.0 + libmatroska v1.0.0

Video
ID                               : 1
Format                           : AVC
Format/Info                      : Advanced Video Codec
Format profile                   : High@L4.1
Format settings, CABAC           : Yes
Format settings, ReFrames        : 5 frames
Muxing mode                      : Container profile=Unknown@4.1
Codec ID                         : V_MPEG4/ISO/AVC
Duration                         : 1h 44mn
Bit rate                         : 13.0 Mbps
Width                            : 1 920 pixels
Height                           : 800 pixels
Display aspect ratio             : 2.40:1
Frame rate                       : 23.976 fps
Color space                      : YUV
Chroma subsampling               : 4:2:0
Bit depth                        : 8 bits
Scan type                        : Progressive
Bits/(Pixel*Frame)               : 0.353
Stream size                      : 9.44 GiB (83%)
Title                            : Salt (2010) - Release for HDCLUB
Writing library                  : x264 core 108 r1790 8eaf8a6
Encoding settings                : cabac=1 / ref=5 / deblock=1:-3:-3 / analyse=0x3:0x113 / me=tesa / subme=10 / psy=1 / psy_rd=1.10:0.00 / mixed_ref=1 / me_range=16 / chroma_me=1 / trellis=2 / 8x8dct=1 / cqm=0 / deadzone=21,11 / fast_pskip=0 / chroma_qp_offset=-2 / threads=12 / sliced_threads=0 / nr=0 / decimate=0 / interlaced=0 / constrained_intra=0 / bframes=8 / b_pyramid=2 / b_adapt=2 / b_bias=0 / direct=3 / weightb=1 / open_gop=0 / weightp=2 / keyint=250 / keyint_min=23 / scenecut=40 / intra_refresh=0 / rc=2pass / mbtree=0 / bitrate=13000 / ratetol=1.0 / qcomp=0.60 / qpmin=10 / qpmax=51 / qpstep=4 / cplxblur=20.0 / qblur=0.5 / ip_ratio=1.40 / pb_ratio=1.30 / aq=1:0.90
Language                         : English

Audio #1
ID                               : 2
Format                           : AC-3
Format/Info                      : Audio Coding 3
Mode extension                   : CM (complete main)
Codec ID                         : A_AC3
Duration                         : 1h 44mn
Bit rate mode                    : Constant
Bit rate                         : 640 Kbps
Channel(s)                       : 6 channels
Channel positions                : Front: L C R, Side: L R, LFE
Sampling rate                    : 48.0 KHz
Bit depth                        : 16 bits
Stream size                      : 476 MiB (4%)
Title                            : дубляж [ac3 6ch 640 kbps]
Language                         : Russian

OK
15.
Код: Выделить всё
Format                           : Matroska
File size                        : 7.08 GiB
Duration                         : 1h 47mn
Overall bit rate                 : 9 408 Kbps
Encoded date                     : UTC 2008-10-18 19:45:56
Writing application              : mkvmerge v2.2.0 ('Turn It On Again') built on Mar  4 2008 12:58:26
Writing library                  : libebml v0.7.7 + libmatroska v0.8.1

Video
ID                               : 1
Format                           : AVC
Format/Info                      : Advanced Video Codec
Format profile                   : High@L5.1
Format settings, CABAC           : Yes
Format settings, ReFrames        : 8 frames
Muxing mode                      : Container profile=Unknown@5.1
Codec ID                         : V_MPEG4/ISO/AVC
Duration                         : 1h 47mn
Bit rate                         : 9 020 Kbps
Width                            : 1 920 pixels
Height                           : 1 040 pixels
Display aspect ratio             : 16:9
Frame rate                       : 23.976 fps
Color space                      : YUV
Chroma subsampling               : 4:2:0
Bit depth                        : 8 bits
Scan type                        : Progressive
Bits/(Pixel*Frame)               : 0.188
Stream size                      : 6.65 GiB (94%)
Writing library                  : x264 core 56 svn-680
Encoding settings                : cabac=1 / ref=5 / deblock=1:-3:-3 / analyse=0x3:0x133 / me=umh / subme=7 / brdo=1 / mixed_ref=1 / me_range=16 / chroma_me=1 / trellis=1 / 8x8dct=1 / cqm=2 / deadzone=21,11 / chroma_qp_offset=0 / threads=6 / nr=0 / decimate=1 / mbaff=0 / bframes=16 / b_pyramid=1 / b_adapt=1 / b_bias=0 / direct=3 / wpredb=1 / bime=1 / keyint=250 / keyint_min=25 / scenecut=40(pre) / rc=2pass / bitrate=9020 / ratetol=1.0 / rceq='blurCplx^(1-qComp)' / qcomp=0.60 / qpmin=10 / qpmax=51 / qpstep=4 / cplxblur=20.0 / qblur=0.5 / ip_ratio=1.40 / pb_ratio=1.30 / aq=1:0.3:15.0
Language                         : English

Audio
ID                               : 2
Format                           : AC-3
Format/Info                      : Audio Coding 3
Mode extension                   : CM (complete main)
Codec ID                         : A_AC3
Duration                         : 1h 47mn
Bit rate mode                    : Constant
Bit rate                         : 384 Kbps
Channel(s)                       : 6 channels
Channel positions                : Front: L C R, Side: L R, LFE
Sampling rate                    : 48.0 KHz
Bit depth                        : 16 bits
Stream size                      : 296 MiB (4%)
Title                            : AC3 384 kbps
Language                         : Russian

NO
Битый файл, на компьютере тоже не пошел
16.
Код: Выделить всё
Format                           : Matroska
File size                        : 15.1 GiB
Duration                         : 2h 11mn
Overall bit rate                 : 16.5 Mbps
Encoded date                     : UTC 2010-09-04 21:41:04
Writing application              : mkvmerge v2.9.8 ('C'est le bon') built on Aug 13 2009 12:49:06
Writing library                  : libebml v0.7.7 + libmatroska v0.8.1

Video
ID                               : 1
Format                           : AVC
Format/Info                      : Advanced Video Codec
Format profile                   : High@L4.1
Format settings, CABAC           : Yes
Format settings, ReFrames        : 4 frames
Muxing mode                      : Container profile=Unknown@4.1
Codec ID                         : V_MPEG4/ISO/AVC
Duration                         : 2h 11mn
Bit rate mode                    : Variable
Bit rate                         : 14.7 Mbps
Maximum bit rate                 : 25.0 Mbps
Width                            : 1 920 pixels
Height                           : 1 080 pixels
Display aspect ratio             : 16:9
Frame rate                       : 23.976 fps
Standard                         : NTSC
Color space                      : YUV
Chroma subsampling               : 4:2:0
Bit depth                        : 8 bits
Scan type                        : Progressive
Bits/(Pixel*Frame)               : 0.295
Stream size                      : 13.5 GiB (89%)
Language                         : German
Color primaries                  : BT.709-5, BT.1361, IEC 61966-2-4, SMPTE RP177
Transfer characteristics         : BT.709-5, BT.1361
Matrix coefficients              : BT.709-5, BT.1361, IEC 61966-2-4 709, SMPTE RP177

Audio #1
ID                               : 2
Format                           : AC-3
Format/Info                      : Audio Coding 3
Mode extension                   : CM (complete main)
Codec ID                         : A_AC3
Duration                         : 2h 11mn
Bit rate mode                    : Constant
Bit rate                         : 448 Kbps
Channel(s)                       : 6 channels
Channel positions                : Front: L C R, Side: L R, LFE
Sampling rate                    : 48.0 KHz
Bit depth                        : 16 bits
Stream size                      : 422 MiB (3%)
Title                            : AC3 5.1 @448 Rus MVO Kinomania
Language                         : Russian

OK
16.
Код: Выделить всё
Format                           : Matroska
File size                        : 7.52 GiB
Duration                         : 2h 18mn
Overall bit rate                 : 7 790 Kbps
Movie name                       : Брестская крепость (2010) [tRuAVC] [Geralt iz Rivii]
Encoded date                     : UTC 2011-01-02 04:45:20
Writing application              : mkvmerge v3.4.0 ('Rapunzel') built on May 15 2010 09:38:20
Writing library                  : libebml v0.8.0 + libmatroska v0.9.0
Cover                            : Yes

Video
ID                               : 1
Format                           : AVC
Format/Info                      : Advanced Video Codec
Format profile                   : High@L4.1
Format settings, CABAC           : Yes
Format settings, ReFrames        : 10 frames
Muxing mode                      : Container profile=Unknown@4.1
Codec ID                         : V_MPEG4/ISO/AVC
Duration                         : 2h 18mn
Bit rate                         : 7 187 Kbps
Width                            : 1 280 pixels
Height                           : 546 pixels
Display aspect ratio             : 2.35:1
Frame rate                       : 24.000 fps
Color space                      : YUV
Chroma subsampling               : 4:2:0
Bit depth                        : 8 bits
Scan type                        : Progressive
Bits/(Pixel*Frame)               : 0.429
Stream size                      : 6.94 GiB (92%)
Title                            : Брестская крепость (2010) [tRuAVC] [Geralt iz Rivii]
Writing library                  : x264 core 112 r1834kMod a51816a
Encoding settings                : cabac=1 / ref=10 / deblock=1:-3:-2 / analyse=0x3:0x133 / me=umh / subme=10 / psy=1 / psy_rd=1.00:0.00 / mixed_ref=1 / me_range=40 / chroma_me=1 / trellis=2 / 8x8dct=1 / cqm=0 / deadzone=21,11 / fast_pskip=1 / chroma_qp_offset=-2 / threads=12 / sliced_threads=0 / nr=0 / decimate=1 / interlaced=0 / constrained_intra=0 / bframes=9 / b_pyramid=2 / b_adapt=2 / b_bias=0 / direct=3 / weightb=1 / open_gop=0 / weightp=2 / keyint=250 / keyint_min=24 / scenecut=40 / intra_refresh=0 / rc_lookahead=0 / rc=crf / mbtree=0 / crf=17.5000 / qcomp=0.60 / qpmin=0 / qpmax=51 / qpstep=4 / vbv_maxrate=50000 / vbv_bufsize=62500 / crf_max=0.0 / ip_ratio=1.40 / pb_ratio=1.30 / aq=1:0.80 / nal_hrd=none
Language                         : Russian
Matrix coefficients              : BT.709-5, BT.1361, IEC 61966-2-4 709, SMPTE RP177

Audio
ID                               : 2
Format                           : AC-3
Format/Info                      : Audio Coding 3
Mode extension                   : CM (complete main)
Codec ID                         : A_AC3
Duration                         : 2h 18mn
Bit rate mode                    : Constant
Bit rate                         : 448 Kbps
Channel(s)                       : 6 channels
Channel positions                : Front: L C R, Side: L R, LFE
Sampling rate                    : 48.0 KHz
Bit depth                        : 16 bits
Stream size                      : 443 MiB (6%)
Title                            : 48 kHz, AC-3, 5.1 ch, 448 kbps
Language                         : Russian

OK
17.
Код: Выделить всё
Format                           : Matroska
File size                        : 12.1 GiB
Duration                         : 1h 43mn
Overall bit rate                 : 16.8 Mbps
Encoded date                     : UTC 2010-04-04 09:32:54
Writing application              : mkvmerge v2.2.0 ('Turn It On Again') built on Mar  4 2008 13:20:25
Writing library                  : libebml v0.7.7 + libmatroska v0.8.1

Video
ID                               : 1
Format                           : AVC
Format/Info                      : Advanced Video Codec
Format profile                   : High@L4.1
Format settings, CABAC           : Yes
Format settings, ReFrames        : 4 frames
Muxing mode                      : Container profile=Unknown@4.1
Codec ID                         : V_MPEG4/ISO/AVC
Duration                         : 1h 43mn
Bit rate mode                    : Variable
Bit rate                         : 16.0 Mbps
Maximum bit rate                 : 40.0 Mbps
Width                            : 1 920 pixels
Height                           : 1 080 pixels
Display aspect ratio             : 16:9
Frame rate                       : 23.976 fps
Standard                         : NTSC
Color space                      : YUV
Chroma subsampling               : 4:2:0
Bit depth                        : 8 bits
Scan type                        : Progressive
Bits/(Pixel*Frame)               : 0.322
Stream size                      : 11.5 GiB (95%)
Color primaries                  : BT.709-5, BT.1361, IEC 61966-2-4, SMPTE RP177
Transfer characteristics         : BT.709-5, BT.1361
Matrix coefficients              : BT.709-5, BT.1361, IEC 61966-2-4 709, SMPTE RP177

Audio
ID                               : 2
Format                           : AC-3
Format/Info                      : Audio Coding 3
Mode extension                   : CM (complete main)
Codec ID                         : A_AC3
Duration                         : 1h 43mn
Bit rate mode                    : Constant
Bit rate                         : 448 Kbps
Channel(s)                       : 6 channels
Channel positions                : Front: L C R, Side: L R, LFE
Sampling rate                    : 48.0 KHz
Bit depth                        : 16 bits
Stream size                      : 331 MiB (3%)
Title                            : Русский (оригинал)
Language                         : Russian

OK
18.
Код: Выделить всё
Format                           : Matroska
File size                        : 8.30 GiB
Duration                         : 1h 28mn
Overall bit rate                 : 13.4 Mbps
Encoded date                     : UTC 2011-01-23 00:03:45
Writing application              : mkvmerge v2.4.0 ('Fumbling Towards Ecstasy') built on Oct 11 2008 20:13:15
Writing library                  : libebml v0.7.7 + libmatroska v0.8.1

Video
ID                               : 1
Format                           : AVC
Format/Info                      : Advanced Video Codec
Format profile                   : Main@L4.1
Format settings, CABAC           : Yes
Format settings, ReFrames        : 1 frame
Codec ID                         : V_MPEG4/ISO/AVC
Duration                         : 1h 28mn
Bit rate                         : 10.7 Mbps
Width                            : 1 920 pixels
Height                           : 816 pixels
Display aspect ratio             : 2.35:1
Frame rate                       : 23.976 fps
Color space                      : YUV
Chroma subsampling               : 4:2:0
Bit depth                        : 8 bits
Scan type                        : Progressive
Bits/(Pixel*Frame)               : 0.284
Stream size                      : 6.89 GiB (83%)
Writing library                  : x264 core 65 r999kMod cc51047
Encoding settings                : cabac=1 / ref=1 / deblock=1:0:0 / analyse=0x1:0x111 / me=hex / subme=6 / psy_rd=1.0:0.0 / mixed_ref=0 / me_range=16 / chroma_me=1 / trellis=0 / 8x8dct=0 / cqm=0 / deadzone=21,11 / chroma_qp_offset=-2 / threads=2 / thread_queue=2 / nr=0 / decimate=1 / mbaff=0 / bframes=0 / keyint=250 / keyint_min=25 / scenecut=40(pre) / rc=2pass / bitrate=10656 / ratetol=1.0 / qcomp=0.60 / qpmin=10 / qpmax=51 / qpstep=4 / cplxblur=20.0 / qblur=0.5 / ip_ratio=1.40 / aq=1:1.00

Audio #1
ID                               : 2
Format                           : AC-3
Format/Info                      : Audio Coding 3
Mode extension                   : CM (complete main)
Codec ID                         : A_AC3
Duration                         : 1h 28mn
Bit rate mode                    : Constant
Bit rate                         : 448 Kbps
Channel(s)                       : 6 channels
Channel positions                : Front: L C R, Side: L R, LFE
Sampling rate                    : 48.0 KHz
Bit depth                        : 16 bits
Compression mode                 : Lossy
Stream size                      : 285 MiB (3%)

OK

Если сравнивать с тестом с сетевого диска, то с внутреннего диска намного больше файлов запустилось, открывались файлы более 5 гб которые не грузились с сетевого. Файловая система диска была jfs. По заявлениях разработчиков, обещается большая работа медиаплееру, проблемные файлы не удаляю и буду тестить на новых прошивках.
Интернет-магазин skywayhd.ru
НЕ ЗАДАВАЙТЕ ТЕХНИЧЕСКИЕ ВОПРОСЫ В ЛИЧНЫХ СООБЩЕНИЯ!!!

ЕСЛИ ПРОСЯТ СДЕЛАТЬ СКРИНШОТ, ЖМИ СЮДА
Аватара пользователя
vodker
Гуру
Гуру
 
Сообщения: 12726
Зарегистрирован: 11 янв 2010, 01:41
Откуда: Ростов-на-Дону
Модель ресивера: SKYWAY VIRGO


Вернуться в ОБЗОР РЕСИВЕРОВ SKYWAY

Кто сейчас на конференции

Сейчас этот форум просматривают: нет зарегистрированных пользователей и гости: 0